-

  • (164)
  • (145)
  • (114)
  • , -, R'n'B (103)
  • (102)
  • (99)
  • (94)
  • (91)
  • (91)
  • Dence (82)
  • (81)
  • (42)
  • (25)
  • (23)
  • (21)
  • (21)
  • (21)
  • (20)
  • (19)

 -

: 6468 : 6

 - .

 -

   __

 - e-mail

 

 -

<a href="http://www.blogo.ru" title=&

 -

 LiveInternet.ru:
: 23.02.2009
:
:
: 368

:

(0)

- -: ft. -,

, 03 2009 . 18:21 +
 (320x240, 12Kb)
- -: ft. -,

: :
/ :
(): ,
: 2009
:
: -
:
:

: . . , -. : S!

- - 30.06.1977 . " - ". 4 , , , . : , , Run D.M.C.
- -: : Video
Format : M-JPEG
Codec ID : MJPG
Duration : 4mn 7s
Bit rate : 1 961 Kbps
Width : 320 pixels
Height : 240 pixels
Display aspect ratio : 4/3
Frame rate : 25.000 fps
Resolution : 24 bits
Bits/(Pixel*Frame) : 1.022
Stream size : 57.8 MiB (93%)
: Audio
Format : MPEG Audio
Format version : Version 1
Format profile : Layer 3
Codec ID : 55
Codec ID/Hint : MP3
Duration : 4mn 6s
Bit rate mode : Constant
Bit rate : 128 Kbps
Channel(s) : 2 channels
Sampling rate : 44.1 KHz
Resolution : 16 bits
Stream size : 3.77 MiB (6%)
Alignment : Aligned on interleaves
Interleave, duration : 26 ms (0.65 video frame)
Writing library : LAME3.96.1

: 04:07

:
, " ". ft. -,


- - -: ft. -,



, -, R'n'B






:  

 : [1]